<?xml version="1.0" standalone="no"?>
<!DOCTYPE svg PUBLIC "-//W3C//DTD SVG 1.1//EN" "http://www.w3.org/Graphics/SVG/1.1/DTD/svg11.dtd" >
<svg xmlns="http://www.w3.org/2000/svg" xmlns:xlink="http://www.w3.org/1999/xlink" version="1.1">
<metadata></metadata>
<defs>
<font id="boeing-styleregular" horiz-adv-x="1024" >
<font-face units-per-em="2048" ascent="1638" descent="-410" />
<missing-glyph horiz-adv-x="414" />
<glyph horiz-adv-x="0" />
<glyph horiz-adv-x="682" />
<glyph unicode=" "  horiz-adv-x="414" />
<glyph unicode="&#x09;" horiz-adv-x="414" />
<glyph unicode="&#xa0;" horiz-adv-x="414" />
<glyph unicode="!" horiz-adv-x="1320" d="M-292 0l208 258h794l-204 -258h-798zM184 600l680 860h804l-686 -860h-798z" />
<glyph unicode="&#x22;" horiz-adv-x="1300" d="M358 1052l320 408h420l-322 -408h-418zM1010 1052l320 408h420l-322 -408h-418z" />
<glyph unicode="#" horiz-adv-x="1940" d="M-216 332l210 262h1708l-212 -262h-1706zM-188 72l1330 1310h294l-1334 -1310h-290zM204 850l210 262h1708l-212 -262h-1706zM454 72l1330 1310h294l-1334 -1310h-290z" />
<glyph unicode="$" horiz-adv-x="2440" d="M-182 111q-30 111 36 199l102 126h802l-24 -28q-30 -40 -17 -71t73 -31h184q114 0 182 86q30 48 16 80t-80 60l-466 172q-200 68 -244 138t44 190l162 198q194 230 502 230h296l94 116h814l-94 -116h194q164 0 204 -106t-30 -198l-100 -126h-798l18 18q28 36 17 71 t-81 35h-186q-102 0 -170 -84q-36 -42 -18 -82t82 -64l452 -168q160 -56 222 -144t-8 -170l-176 -220q-172 -224 -518 -222h-270l-110 -136h-812l110 136h-200q-174 0 -204 111z" />
<glyph unicode="%" horiz-adv-x="3080" d="M122 0l2244 1460h644l-2246 -1460h-642zM250 811q-42 65 32 155l212 264q120 164 332 164h366q128 0 164 -72t-24 -148l-236 -298q-110 -132 -306 -132h-374q-124 2 -166 67zM649 997q13 -17 45 -17h100q56 0 88 34l64 82q18 20 7 42t-47 22h-98q-56 0 -92 -46l-58 -74 q-22 -26 -9 -43zM1706 131q-42 65 32 155l212 264q120 164 332 164h366q128 0 164 -72t-24 -148l-236 -298q-110 -132 -306 -132h-374q-124 2 -166 67zM2105 317q13 -17 45 -17h100q56 0 88 34l64 82q18 20 7 42t-47 22h-98q-56 0 -92 -46l-58 -74q-22 -26 -9 -43z" />
<glyph unicode="&#x26;" horiz-adv-x="2510" d="M-180 108q-42 108 34 202l226 284q116 148 344 178q-50 76 -52 131t62 137l156 196q184 224 538 224h650l-240 -306h-102q-110 0 -178 -82l-64 -78q-28 -38 -17 -74t81 -36h286l108 134h802l-106 -134h252l-250 -306h-248l-458 -578h-1622q-160 0 -202 108zM719 343 q11 -37 81 -37h282l218 272h-324q-118 0 -178 -84l-62 -80q-28 -34 -17 -71z" />
<glyph unicode="'" horiz-adv-x="728" d="M374 1052l320 408h472l-322 -408h-470z" />
<glyph unicode="(" horiz-adv-x="1280" d="M-218 110q-38 110 38 206l732 920q182 226 504 224h634l-242 -304h-52q-106 -4 -172 -86l-526 -662q-30 -38 -15 -70t81 -34l-238 -304h-538q-168 0 -206 110z" />
<glyph unicode=")" horiz-adv-x="1280" d="M-448 0l244 304h48q120 0 182 88l522 654q28 36 18 73t-82 37l252 304h530q162 -2 202 -112t-34 -200l-736 -926q-178 -222 -514 -222h-632z" />
<glyph unicode="*" horiz-adv-x="1346" d="M74 752l1476 708h272l-1480 -708h-268zM550 752l552 708h244l-554 -708h-242zM636 1460h272l344 -708h-272z" />
<glyph unicode="+" horiz-adv-x="2296" d="M164 600l212 262h1722l-208 -262h-1726zM308 208l818 1038h808l-822 -1038h-804z" />
<glyph unicode="," horiz-adv-x="920" d="M-714 -264l630 570h602l-632 -570h-600z" />
<glyph unicode="-" horiz-adv-x="1220" d="M194 600l210 262h600l-208 -262h-602z" />
<glyph unicode="." horiz-adv-x="960" d="M-412 0l246 306h600l-242 -306h-604z" />
<glyph unicode="/" horiz-adv-x="1740" d="M-458 0l1944 1460h676l-1946 -1460h-674z" />
<glyph unicode="0" horiz-adv-x="2400" d="M-178 110q-38 110 38 206l732 920q182 226 504 224h1298q162 -2 202 -112t-34 -200l-736 -926q-178 -222 -514 -222h-1284q-168 0 -206 110zM685 292q15 -32 77 -34h172q120 0 182 88l600 742q28 36 18 73t-82 37h-176q-106 -4 -172 -86l-604 -750q-30 -38 -15 -70z" />
<glyph unicode="1" horiz-adv-x="1400" d="M-138 0l822 1032h-318l182 232q322 0 772 196h502l-1162 -1460h-798z" />
<glyph unicode="2" horiz-adv-x="2400" d="M-392 0l232 296q328 410 824 488l578 86q338 46 442 182l28 38q28 32 15 70t-77 38h-188q-98 -2 -174 -94l-124 -152h-808l232 284q180 224 496 224h1302q164 0 204 -112t-32 -200l-190 -236q-180 -228 -704 -304l-576 -88q-172 -32 -288 -176h1120l-272 -344h-2040z" />
<glyph unicode="3" horiz-adv-x="2400" d="M-184 110q-38 110 34 202l106 134h802l-66 -78q-34 -50 -12 -80t76 -30h166q114 0 192 96l104 126q36 46 21 83t-87 37h-480l206 262h440q204 0 298 112l92 112q30 36 16 74t-76 38h-188q-98 0 -166 -88l-62 -76h-806l158 202q180 224 504 224h1300q164 0 206 -112 t-34 -200l-230 -280q-132 -172 -330 -176q46 -80 40 -136t-56 -126l-168 -210q-178 -220 -508 -220h-1280q-174 0 -212 110z" />
<glyph unicode="4" horiz-adv-x="2300" d="M-184 258l364 470l1448 732h972l-688 -860h274l-274 -342h-272l-206 -258h-834l206 258h-990zM590 600h484l332 410z" />
<glyph unicode="5" horiz-adv-x="2400" d="M-186 110q-36 110 40 202l144 178h800l-96 -112q-32 -42 -15 -80t79 -40h154q124 2 192 86l206 256q40 48 19 84t-79 36h-176q-104 0 -152 -64h-800l636 804h2042l-208 -262h-1232l-184 -226h844q160 0 201 -97t-33 -181l-376 -474q-178 -220 -528 -220h-1260 q-182 0 -218 110z" />
<glyph unicode="6" horiz-adv-x="2400" d="M-183 110q-37 110 35 206l740 920q178 224 500 224h1302q164 0 204 -110t-32 -198l-102 -126h-800l46 56q38 44 22 81t-76 35h-214q-66 0 -146 -96l-196 -242h850q160 -2 199 -98t-35 -180l-286 -362q-176 -220 -538 -220h-1258q-178 0 -215 110zM691 293q21 -35 77 -35 h174q104 0 162 72l124 152q30 40 12 79t-78 39h-160q-114 0 -180 -84l-114 -140q-38 -48 -17 -83z" />
<glyph unicode="7" horiz-adv-x="2040" d="M-6 0q114 186 306 344t404 262t384 151t318 121t184 148h-1314l344 434h1882q-192 -262 -373 -444t-360 -292t-326 -200t-265 -197t-173 -178t-107 -149h-904z" />
<glyph unicode="8" horiz-adv-x="2400" d="M-178 110q-38 110 34 202l232 290q110 140 308 170q-108 76 -20 186l216 278q180 226 504 224h1296q166 2 205 -109t-33 -199l-226 -284q-96 -130 -328 -176q46 -78 42 -135t-66 -137l-162 -200q-172 -220 -520 -220h-1276q-168 0 -206 110zM691 293q21 -35 89 -35h164 q102 0 160 72l124 152q30 40 12 79t-78 39h-162q-114 0 -180 -84l-112 -140q-38 -48 -17 -83zM1181 899q21 -35 87 -37h162q104 0 162 72l120 148q30 40 12 79t-86 37h-154q-114 0 -180 -84l-106 -132q-38 -48 -17 -83z" />
<glyph unicode="9" horiz-adv-x="2400" d="M-180 109q-40 109 32 197l102 126h798l-48 -58q-38 -44 -19 -81t79 -35h188q92 0 156 76l216 266h-850q-160 2 -199 99t35 181l290 360q176 220 534 220h1246q178 0 215 -110t-35 -206l-732 -922q-174 -224 -500 -222h-1304q-164 0 -204 109zM1186 901q18 -39 80 -39h156 q114 0 180 84l108 134q38 48 17 83t-77 35h-174q-104 0 -162 -72l-116 -146q-30 -40 -12 -79z" />
<glyph unicode=":" horiz-adv-x="1120" d="M-330 0l244 306h600l-242 -306h-602zM112 556l244 306h594l-242 -306h-596z" />
<glyph unicode=";" horiz-adv-x="1120" d="M-714 -264l632 570h602l-634 -570h-600zM112 556l246 306h596l-242 -306h-600z" />
<glyph unicode="&#x3c;" horiz-adv-x="1720" d="M152 728l1216 732h724l-1228 -732l92 -728h-712z" />
<glyph unicode="=" horiz-adv-x="1580" d="M-38 338l210 262h1040l-208 -262h-1042zM380 862l210 262h1040l-208 -262h-1042z" />
<glyph unicode="&#x3e;" horiz-adv-x="1720" d="M-404 0l1206 726l-88 734h712l84 -732l-1230 -728h-684z" />
<glyph unicode="?" horiz-adv-x="2400" d="M230 0l212 258h794l-208 -258h-798zM428 1032l160 204q180 224 496 224h1302q164 0 204 -112t-32 -200l-114 -140q-136 -160 -440 -236q-442 -102 -542 -232l-58 -74h-798l98 134q146 184 554 286q352 76 426 166l28 38q28 32 15 70t-77 38h-188q-94 0 -158 -80l-68 -86 h-808z" />
<glyph unicode="@" horiz-adv-x="2440" d="M-176 110q-38 110 38 206l732 920q182 226 504 224h1298q162 -2 202 -112t-34 -200l-524 -660q-110 -112 -260 -112h-694q-14 0 -22 7t4 21q-56 -28 -150 -28h-294q-86 0 -104 55t18 103l348 438q94 112 260 112h358q96 0 84 -28l22 28h406l-396 -500q-14 -20 -9 -38 t37 -18q22 2 42 24l458 574q40 52 20 126t-164 74h-732q-212 -8 -344 -172l-644 -808q-60 -76 -30 -140t154 -68h724q224 -2 326 122h398l-28 -38q-178 -222 -514 -222h-1284q-168 0 -206 110zM980 546q8 -18 40 -18h86q62 0 94 46l240 298q14 18 9 37t-43 19h-90 q-54 -2 -88 -44l-240 -300q-16 -20 -8 -38z" />
<glyph unicode="A" horiz-adv-x="2500" d="M-500 0l1756 1460h1184l-560 -1460h-768l224 576h-488l-680 -576h-668zM1208 884h240l116 308z" />
<glyph unicode="B" horiz-adv-x="2510" d="M-326 0l1164 1460h1620q160 -2 202 -110q15 -38 15 -75q0 -66 -49 -127l-226 -284q-88 -124 -348 -172q48 -70 48 -138t-56 -134l-156 -196q-184 -224 -538 -224h-1676zM714 306h324q110 0 176 82l66 80q20 27 20 54q0 10 -3 20q-11 36 -81 36h-284zM1182 884h322 q118 0 178 84l62 78q20 24 20 50q0 10 -3 21q-11 37 -81 37h-282z" />
<glyph unicode="C" horiz-adv-x="2440" d="M-166 116q-12 30 -12 63q0 94 98 213l672 844q184 222 514 224h1282q160 0 203 -109q16 -40 15 -79q0 -66 -46 -128l-132 -172h-802l60 72q22 27 22 55q0 9 -2 18q-10 37 -86 37h-182q-100 0 -168 -86l-534 -660q-18 -23 -18 -47q0 -11 4 -21q12 -34 76 -34h178 q116 0 182 90l74 88h806l-210 -262q-174 -222 -526 -222h-1240q-182 0 -228 116z" />
<glyph unicode="D" horiz-adv-x="2510" d="M-332 0l1170 1460h1614h6q167 0 207 -108q14 -39 14 -75q0 -68 -49 -129l-740 -928q-184 -220 -534 -220h-1688zM718 306h318q116 0 180 86l530 652q21 27 21 53q0 10 -3 21q-12 36 -80 36h-282z" />
<glyph unicode="E" horiz-adv-x="2140" d="M-326 -2l1164 1462h1618l-242 -306h-812l-216 -270h812l-242 -306h-814l-220 -272h818l-242 -306z" />
<glyph unicode="F" horiz-adv-x="2140" d="M-326 0l1164 1460h1614l-240 -306h-810l-218 -270h808l-242 -306h-812l-454 -578h-810z" />
<glyph unicode="G" horiz-adv-x="2480" d="M-175 112q-14 39 -14 76q0 70 51 134l724 904q186 230 516 234h1282q166 0 209 -109q15 -38 15 -75q0 -69 -52 -134l-136 -174h-800l62 76q22 28 22 57q0 8 -2 16q-8 37 -78 37h-180q-106 0 -172 -84l-536 -660q-20 -26 -20 -51q0 -9 3 -19q11 -34 79 -34h180 q110 0 182 90l306 384h988l-224 -290h-194l-210 -268q-180 -220 -520 -222h-1282q-158 0 -199 112z" />
<glyph unicode="H" horiz-adv-x="2560" d="M-322 2l1160 1458h800l-468 -576h448l462 576h792l-1162 -1460h-806l462 578h-438l-460 -578z" />
<glyph unicode="I" horiz-adv-x="1340" d="M-324 0l1164 1460h814l-1166 -1460h-812z" />
<glyph unicode="J" horiz-adv-x="2440" d="M-167 111q-13 38 -13 74q0 70 50 133l124 168l76 92h810l-134 -168q-22 -28 -22 -52q0 -10 4 -20q14 -32 78 -32h166q108 0 176 84l854 1070h810l-996 -1244q-170 -214 -526 -216h-1260q-158 0 -197 111z" />
<glyph unicode="K" horiz-adv-x="2400" d="M-324 -2l1162 1462h768l-250 -320l654 320h808l-1548 -776l444 -684h-888l-166 268l-206 -266z" />
<glyph unicode="L" horiz-adv-x="2100" d="M-326 -2l1166 1462h800l-912 -1154h814l-244 -306z" />
<glyph unicode="M" horiz-adv-x="3260" d="M-322 0l1164 1460h614l54 -828l1180 828h902l-1164 -1460h-512l596 752l-1106 -752h-610l-20 742l-584 -742h-514z" />
<glyph unicode="N" horiz-adv-x="2440" d="M-324 0l1164 1460h612l176 -728l580 728h554l-1166 -1460h-640l-176 732l-580 -732h-524z" />
<glyph unicode="O" horiz-adv-x="2440" d="M-176 110q-13 37 -13 72q0 70 51 134l732 920q180 224 498 224h6h1298q162 -2 202 -112q14 -39 14 -75q0 -67 -48 -125l-736 -926q-178 -222 -514 -222h-1284q-168 0 -206 110zM727 340q15 -32 77 -34h172q120 0 182 88l518 650q21 27 21 54q0 10 -3 19q-10 37 -82 37 h-176q-106 -4 -172 -86l-522 -658q-20 -25 -20 -48q0 -11 5 -22z" />
<glyph unicode="P" horiz-adv-x="2510" d="M-324 0l1166 1460h1608q168 0 210 -112q15 -41 15 -79q0 -65 -45 -121l-274 -346q-176 -224 -518 -224h-6h-894l-466 -578h-796zM1184 884h316q128 0 184 80l64 80q21 27 21 53q0 10 -3 21q-12 36 -82 36h-278z" />
<glyph unicode="Q" horiz-adv-x="2450" d="M-180 110q-13 37 -13 72q0 70 51 134l732 920q180 224 498 224h6h1298q162 -2 202 -112q14 -39 14 -75q0 -67 -48 -125l-756 -950l76 -198h-1854q-168 0 -206 110zM723 340q15 -32 77 -34h172q54 0 96 18l-130 338l-200 -252q-20 -25 -20 -48q0 -11 5 -22zM940 664h430 l302 380q21 27 21 54q0 9 -3 19q-10 37 -82 37h-176q-106 -4 -172 -86z" />
<glyph unicode="R" horiz-adv-x="2510" d="M-324 0l1164 1460h1616q164 0 206 -110q15 -39 15 -76q0 -67 -49 -128l-238 -298q-84 -116 -348 -184q66 -56 66 -119q0 -51 -44 -107l-350 -438h-810l376 468q20 24 20 51q0 10 -3 21q-11 38 -79 38h-278l-466 -578h-798zM1186 884h312q120 0 184 78l62 80q23 29 23 56 q0 10 -3 20q-12 36 -80 36h-280z" />
<glyph unicode="S" horiz-adv-x="2440" d="M-182 111q-9 35 -9 67q0 71 45 132l102 126h802l-24 -28q-21 -28 -21 -51q0 -10 4 -20q13 -31 73 -31h184q114 0 182 86q20 33 20 58q0 12 -4 22q-14 32 -80 60l-466 172q-200 68 -244 138q-15 23 -15 52q0 58 59 138l162 198q194 230 502 230h1304q164 0 204 -106 q15 -39 15 -75q0 -64 -45 -123l-100 -126h-798l18 18q20 26 20 51q0 10 -3 20q-11 35 -81 35h-186q-102 0 -170 -84q-24 -28 -24 -55q0 -14 6 -27q18 -40 82 -64l452 -168q160 -56 222 -144q29 -41 29 -81q0 -45 -37 -89l-176 -220q-170 -222 -512 -222h-6h-1282 q-174 0 -204 111z" />
<glyph unicode="T" horiz-adv-x="2250" d="M146 0l814 1024h-538l352 436h1852l-350 -436h-508l-816 -1024h-806z" />
<glyph unicode="U" horiz-adv-x="2440" d="M-178 108q-9 32 -9 64q0 76 53 150l904 1138h812l-854 -1060q-30 -36 -30 -58q0 -7 3 -13q13 -23 53 -23h470q100 0 150 66l878 1088h560l-986 -1236q-176 -224 -520 -224h-1272q-180 0 -212 108z" />
<glyph unicode="V" horiz-adv-x="2302" d="M248 0l352 1460h680l-188 -744l952 744h744l-1864 -1460h-676z" />
<glyph unicode="W" horiz-adv-x="3680" d="M96 0l488 1460h680l-288 -828l1048 828h680l-288 -828l1048 828h668l-1872 -1460h-724l248 760l-964 -760h-724z" />
<glyph unicode="X" horiz-adv-x="2232" d="M-500 0l2424 1460h768l-2436 -1460h-756zM644 1460h712l176 -1460h-712z" />
<glyph unicode="Y" horiz-adv-x="2458" d="M234 0l460 578l-104 882h718l54 -504l836 504h788l-1484 -882l-448 -578h-820z" />
<glyph unicode="Z" horiz-adv-x="2492" d="M-352 0l270 340l1650 814h-1002l246 306h2034l-272 -340l-1646 -814h996l-242 -306h-2034z" />
<glyph unicode="[" horiz-adv-x="1520" d="M-320 -2l1164 1462h1014l-242 -306h-208l-680 -848h214l-242 -306z" />
<glyph unicode="\" horiz-adv-x="1960" d="M646 1460h600l52 -1460h-600z" />
<glyph unicode="]" horiz-adv-x="1520" d="M-318 0l246 306h244l676 848h-248l244 306h1052l-1166 -1460h-1048z" />
<glyph unicode="^" horiz-adv-x="2080" d="M228 836l1020 624h760l76 -624h-712l-28 222l-360 -222h-756z" />
<glyph unicode="_" horiz-adv-x="860" d="M-568 -262l210 262h600l-208 -262h-602z" />
<glyph unicode="`" horiz-adv-x="1640" d="M672 1460h712l72 -624h-712z" />
<glyph unicode="a" horiz-adv-x="2440" d="M-176 110q-13 37 -13 72q0 70 51 134l390 490q178 222 496 222h6h680q191 0 191 -44q0 -4 -1 -8l40 52h796l-814 -1028h-806l44 48q-86 -48 -186 -48h-668q-168 0 -206 110zM727 340q15 -32 77 -34h172q120 0 182 88l176 220q21 27 21 54q0 10 -3 19q-10 37 -82 37h-176 q-106 -4 -172 -86l-180 -228q-20 -25 -20 -48q0 -11 5 -22z" />
<glyph unicode="b" horiz-adv-x="2440" d="M-386 0l1160 1460h796l-360 -454q54 24 136 24h702q162 -2 202 -112q14 -39 14 -75q0 -67 -48 -125l-388 -496q-178 -222 -514 -222h-776q-84 0 -82 52l-38 -52h-804zM727 340q15 -32 77 -34h172q120 0 182 88l170 220q21 27 21 54q0 10 -3 19q-10 37 -82 37h-176 q-106 -4 -172 -86l-174 -228q-20 -25 -20 -48q0 -11 5 -22z" />
<glyph unicode="c" horiz-adv-x="2440" d="M-166 116q-12 30 -12 63q0 94 98 213l334 414q184 222 514 224h1278q160 0 203 -109q16 -40 16 -79q0 -66 -47 -128l-114 -138h-800l34 36q28 30 28 59q0 8 -2 16q-10 37 -86 37h-188q-100 0 -168 -86l-186 -230q-18 -23 -18 -47q0 -11 4 -21q12 -34 76 -34h178 q116 0 182 90l30 34h802l-162 -208q-174 -222 -526 -222h-1240q-182 0 -228 116z" />
<glyph unicode="d" horiz-adv-x="2440" d="M-176 110q-13 37 -13 72q0 70 51 134l390 490q180 224 498 224h6h736q110 0 140 -44l378 474h802l-1166 -1460h-806l44 48q-86 -48 -186 -48h-668q-168 0 -206 110zM727 340q15 -32 77 -34h172q120 0 182 88l176 220q21 27 21 54q0 10 -3 19q-10 37 -82 37h-176 q-106 -4 -172 -86l-180 -228q-20 -25 -20 -48q0 -11 5 -22z" />
<glyph unicode="e" horiz-adv-x="2440" d="M-166 116q-12 30 -12 63q0 94 98 213l334 414q184 222 514 224h1278q160 0 203 -109q16 -40 16 -79q0 -66 -47 -128l-218 -278h-1232l-32 -28q-18 -23 -18 -47q0 -11 4 -21q12 -34 76 -34h178q116 0 150 42h802l-100 -126q-174 -222 -526 -222h-1240q-182 0 -228 116z M882 588h434l22 24q28 30 28 59q0 8 -2 16q-10 37 -86 37h-188q-100 0 -168 -86z" />
<glyph unicode="f" horiz-adv-x="1624" d="M-208 0l576 724h-230l250 306h224l164 206q184 222 514 224h706l-244 -308l-130 2q-100 0 -168 -86l-32 -40h226l-236 -304h-234l-578 -724h-808z" />
<glyph unicode="g" horiz-adv-x="2440" d="M-636 -466q-13 37 -13 72q0 70 51 134l78 94h802q-20 -25 -20 -48q0 -11 5 -22q15 -32 77 -34h172q120 0 182 88l190 230q-86 -48 -186 -48h-668q-168 0 -206 110q-13 37 -13 72q0 70 51 134l392 490q180 224 498 224h6h736q110 0 140 -44l40 44h790l-1168 -1464 q-114 -140 -382 -142h-1348q-168 0 -206 110zM731 340q15 -32 77 -34h172q120 0 182 88l178 220q21 27 21 54q0 9 -3 19q-10 37 -82 37h-176q-106 -4 -172 -86l-182 -228q-20 -25 -20 -48q0 -11 5 -22z" />
<glyph unicode="h" horiz-adv-x="2440" d="M-386 0l1160 1460h796l-358 -454q54 24 136 24h702q162 -2 202 -112q14 -39 14 -75q0 -67 -48 -125l-568 -718h-804l484 614q21 27 21 54q0 10 -3 19q-10 37 -82 37h-176q-106 -4 -172 -86l-500 -638h-804z" />
<glyph unicode="i" horiz-adv-x="1200" d="M-388 0l820 1028h812l-820 -1028h-812zM530 1154l246 306h814l-246 -306h-814z" />
<glyph unicode="j" horiz-adv-x="2440" d="M-636 -466q-13 37 -13 72q0 70 51 134l222 260h808l-150 -166q-20 -25 -20 -48q0 -11 5 -22q15 -32 77 -34h172q120 0 182 88l974 1210h790l-1162 -1462q-114 -140 -382 -142h-1348q-168 0 -206 110zM1766 1154l246 306h796l-246 -306h-796z" />
<glyph unicode="k" horiz-adv-x="2300" d="M-388 -2l1162 1462h768l-594 -752l654 320h808l-1122 -562l286 -466h-812l-166 268l-206 -266z" />
<glyph unicode="l" horiz-adv-x="1200" d="M-388 0l1164 1460h814l-1166 -1460h-812z" />
<glyph unicode="m" horiz-adv-x="3672" d="M-386 0l826 1030h796l-32 -34q60 34 176 34h624q74 0 86 -32q28 32 146 32h1050q162 -2 202 -112q14 -39 14 -75q0 -67 -48 -125l-568 -718h-804l484 614q21 27 21 54q0 10 -3 19q-10 37 -82 37h-176q-104 0 -162 -74l-514 -650h-804l484 614q21 27 21 54q0 10 -3 19 q-10 37 -82 37h-176q-106 -4 -172 -86l-500 -638h-804z" />
<glyph unicode="n" horiz-adv-x="2440" d="M-386 0l826 1030h796l-32 -34q60 34 176 34h670q162 -2 202 -112q14 -39 14 -75q0 -67 -48 -125l-568 -718h-804l484 614q21 27 21 54q0 10 -3 19q-10 37 -82 37h-176q-106 -4 -172 -86l-500 -638h-804z" />
<glyph unicode="o" horiz-adv-x="2440" d="M-176 110q-13 37 -13 72q0 70 51 134l388 490q180 224 498 224h6h1298q162 -2 202 -112q14 -39 14 -75q0 -67 -48 -125l-392 -496q-178 -222 -514 -222h-1284q-168 0 -206 110zM727 340q15 -32 77 -34h172q120 0 182 88l174 220q21 27 21 54q0 10 -3 19q-10 37 -82 37 h-176q-106 -4 -172 -86l-178 -228q-20 -25 -20 -48q0 -11 5 -22z" />
<glyph unicode="p" horiz-adv-x="2440" d="M-852 -582l1276 1612h804l-38 -42q88 42 250 42h608q162 -2 202 -113q14 -39 14 -75q0 -68 -48 -126l-392 -496q-176 -220 -502 -220h-6h-768q-83 0 -83 40q0 4 1 8l-506 -630h-812zM725 340q15 -32 77 -34h172q120 0 182 88l174 220q21 27 21 54q0 9 -3 19 q-10 37 -82 37h-176q-106 -4 -172 -86l-178 -228q-20 -25 -20 -48q0 -11 5 -22z" />
<glyph unicode="q" horiz-adv-x="2440" d="M-172 110q-13 37 -13 72q0 70 51 134l384 490q180 224 498 224h6h736q110 0 140 -44l40 44h790l-1280 -1606h-792l500 624q-86 -48 -186 -48h-668q-168 0 -206 110zM731 340q15 -32 77 -34h172q120 0 182 88l170 220q21 27 21 54q0 9 -3 19q-10 37 -82 37h-176 q-106 -4 -172 -86l-174 -228q-20 -25 -20 -48q0 -11 5 -22z" />
<glyph unicode="r" horiz-adv-x="2040" d="M-386 0l826 1030h796l-52 -56q104 56 300 56h566l-242 -306h-580q-236 0 -360 -148l-450 -576h-804z" />
<glyph unicode="s" horiz-adv-x="2440" d="M-182 111q-9 35 -9 67q0 71 45 132l80 98h800q-21 -28 -21 -51q0 -10 4 -20q13 -31 73 -31h184q114 0 182 86q1 1 1 3q0 31 -371 71l-380 44q-273 26 -273 116q0 27 25 60l86 112q194 230 502 230h1304q164 0 204 -106q15 -39 15 -75q0 -64 -45 -123l-86 -108h-804 q29 28 29 55q0 8 -2 16q-11 35 -81 35h-186q-102 0 -170 -84q-3 -3 -3 -7q0 -37 351 -71l424 -46q253 -24 253 -107q0 -26 -25 -57l-102 -128q-170 -222 -512 -222h-6h-1282q-174 0 -204 111z" />
<glyph unicode="t" horiz-adv-x="1640" d="M6 116q-12 30 -12 63q0 94 98 213l264 332h-234l250 306h228l342 430h802l-342 -430h242l-250 -306h-234l-252 -316q-18 -23 -18 -47q0 -11 4 -21q12 -34 76 -34h86l-248 -306h-574q-182 0 -228 116z" />
<glyph unicode="u" horiz-adv-x="2440" d="M-178 108q-9 32 -9 64q0 76 53 150l558 708h812l-508 -630q-30 -36 -30 -58q0 -7 3 -13q13 -23 53 -23h474q100 0 150 66l532 658h556l-816 -1030h-568l32 36q-86 -36 -202 -36h-878q-180 0 -212 108z" />
<glyph unicode="v" horiz-adv-x="1900" d="M56 0l244 1028h680l-80 -312l400 312h724l-1292 -1028h-676z" />
<glyph unicode="w" horiz-adv-x="3000" d="M-36 0l336 1028h680l-136 -396l500 396h768l-132 -396l508 396h668l-1332 -1028h-724l144 432l-556 -432h-724z" />
<glyph unicode="x" horiz-adv-x="2120" d="M-512 0l1988 1028h768l-2000 -1028h-756zM304 1028h712l404 -1028h-712z" />
<glyph unicode="y" horiz-adv-x="2180" d="M-524 -580l244 306h108q98 0 164 80l154 194l126 1028h612l-70 -652l854 652h670l-1384 -1028l-344 -438q-112 -140 -380 -142h-754z" />
<glyph unicode="z" horiz-adv-x="2268" d="M-324 0l270 340l1290 380l-982 2l246 306h1786l-272 -340l-1302 -384l992 2l-242 -306h-1786z" />
<glyph unicode="{" horiz-adv-x="1440" d="M-66 110q-38 110 38 206l92 116q50 62 33 104t-75 42h-50l242 306h60q150 0 252 128l178 224q182 226 504 224h634l-242 -304h-52q-106 -4 -172 -86l-526 -662q-30 -38 -15 -70t81 -34l-238 -304h-538q-168 0 -206 110z" />
<glyph unicode="|" horiz-adv-x="1960" d="M672 0v1460h600v-1460h-600z" />
<glyph unicode="}" horiz-adv-x="1260" d="M-448 0l244 304h48q120 0 182 88l522 654q28 36 18 73t-82 37l252 304h530q162 -2 202 -112t-34 -200l-112 -140q-50 -60 -48 -92t44 -32h108l-246 -306h-104q-96 -2 -176 -102l-202 -254q-178 -222 -514 -222h-632z" />
<glyph unicode="~" horiz-adv-x="2740" d="M228 836l1020 624h760l20 -200l336 200h760l-1040 -624h-712l-28 222l-360 -222h-756z" />
<glyph unicode="&#xa0;" />
<glyph unicode="&#xa1;" />
<glyph unicode="&#xa2;" />
<glyph unicode="&#xa3;" />
<glyph unicode="&#xa4;" />
<glyph unicode="&#xa5;" horiz-adv-x="1960" d="M646 1460h600l52 -1460h-600z" />
<glyph unicode="&#xa6;" horiz-adv-x="1960" d="M672 0v1460h600v-1460h-600z" />
<glyph unicode="&#xa7;" />
<glyph unicode="&#xa8;" />
<glyph unicode="&#xa9;" />
<glyph unicode="&#xaa;" />
<glyph unicode="&#xab;" />
<glyph unicode="&#xac;" />
<glyph unicode="&#xad;" />
<glyph unicode="&#xae;" />
<glyph unicode="&#xaf;" />
<glyph unicode="&#xb0;" />
<glyph unicode="&#xb1;" />
<glyph unicode="&#xb2;" />
<glyph unicode="&#xb3;" />
<glyph unicode="&#xb4;" />
<glyph unicode="&#xb5;" />
<glyph unicode="&#xb6;" />
<glyph unicode="&#xb7;" />
<glyph unicode="&#xb8;" />
<glyph unicode="&#xb9;" />
<glyph unicode="&#xba;" />
<glyph unicode="&#xbb;" />
<glyph unicode="&#xbc;" />
<glyph unicode="&#xbd;" />
<glyph unicode="&#xbe;" />
<glyph unicode="&#xbf;" />
<glyph unicode="&#xc0;" />
<glyph unicode="&#xc1;" />
<glyph unicode="&#xc2;" />
<glyph unicode="&#xc3;" />
<glyph unicode="&#xc4;" />
<glyph unicode="&#xc5;" />
<glyph unicode="&#xc6;" />
<glyph unicode="&#xc7;" />
<glyph unicode="&#xc8;" />
<glyph unicode="&#xc9;" />
<glyph unicode="&#xca;" />
<glyph unicode="&#xcb;" />
<glyph unicode="&#xcc;" />
<glyph unicode="&#xcd;" />
<glyph unicode="&#xce;" />
<glyph unicode="&#xcf;" />
<glyph unicode="&#xd0;" />
<glyph unicode="&#xd1;" />
<glyph unicode="&#xd2;" />
<glyph unicode="&#xd3;" />
<glyph unicode="&#xd4;" />
<glyph unicode="&#xd5;" />
<glyph unicode="&#xd6;" />
<glyph unicode="&#xd7;" />
<glyph unicode="&#xd8;" />
<glyph unicode="&#xd9;" />
<glyph unicode="&#xda;" />
<glyph unicode="&#xdb;" />
<glyph unicode="&#xdc;" />
<glyph unicode="&#xdd;" />
<glyph unicode="&#xde;" />
<glyph unicode="&#xdf;" />
<glyph unicode="&#xe0;" />
<glyph unicode="&#xe1;" />
<glyph unicode="&#xe2;" />
<glyph unicode="&#xe3;" />
<glyph unicode="&#xe4;" />
<glyph unicode="&#xe5;" />
<glyph unicode="&#xe6;" />
<glyph unicode="&#xe7;" />
<glyph unicode="&#xe8;" />
<glyph unicode="&#xe9;" />
<glyph unicode="&#xea;" />
<glyph unicode="&#xeb;" />
<glyph unicode="&#xec;" />
<glyph unicode="&#xed;" />
<glyph unicode="&#xee;" />
<glyph unicode="&#xef;" />
<glyph unicode="&#xf0;" />
<glyph unicode="&#xf1;" />
<glyph unicode="&#xf2;" />
<glyph unicode="&#xf3;" />
<glyph unicode="&#xf4;" />
<glyph unicode="&#xf5;" />
<glyph unicode="&#xf6;" />
<glyph unicode="&#xf7;" />
<glyph unicode="&#xf8;" />
<glyph unicode="&#xf9;" />
<glyph unicode="&#xfa;" />
<glyph unicode="&#xfb;" />
<glyph unicode="&#xfc;" />
<glyph unicode="&#xfd;" />
<glyph unicode="&#xfe;" />
<glyph unicode="&#xff;" />
<glyph unicode="&#x152;" />
<glyph unicode="&#x153;" />
<glyph unicode="&#x178;" />
<glyph unicode="&#x2c6;" />
<glyph unicode="&#x2dc;" />
<glyph unicode="&#x2000;" horiz-adv-x="788" />
<glyph unicode="&#x2001;" horiz-adv-x="1576" />
<glyph unicode="&#x2002;" horiz-adv-x="788" />
<glyph unicode="&#x2003;" horiz-adv-x="1576" />
<glyph unicode="&#x2004;" horiz-adv-x="525" />
<glyph unicode="&#x2005;" horiz-adv-x="394" />
<glyph unicode="&#x2006;" horiz-adv-x="262" />
<glyph unicode="&#x2007;" horiz-adv-x="262" />
<glyph unicode="&#x2008;" horiz-adv-x="197" />
<glyph unicode="&#x2009;" horiz-adv-x="315" />
<glyph unicode="&#x200a;" horiz-adv-x="87" />
<glyph unicode="&#x2010;" horiz-adv-x="1220" d="M194 600l210 262h600l-208 -262h-602z" />
<glyph unicode="&#x2011;" horiz-adv-x="1220" d="M194 600l210 262h600l-208 -262h-602z" />
<glyph unicode="&#x2012;" horiz-adv-x="1220" d="M194 600l210 262h600l-208 -262h-602z" />
<glyph unicode="&#x2013;" />
<glyph unicode="&#x2014;" />
<glyph unicode="&#x2018;" horiz-adv-x="728" d="M374 1052l320 408h472l-322 -408h-470z" />
<glyph unicode="&#x2019;" horiz-adv-x="728" d="M374 1052l320 408h472l-322 -408h-470z" />
<glyph unicode="&#x201a;" horiz-adv-x="920" d="M-714 -264l630 570h602l-632 -570h-600z" />
<glyph unicode="&#x201c;" horiz-adv-x="1300" d="M358 1052l320 408h420l-322 -408h-418zM1010 1052l320 408h420l-322 -408h-418z" />
<glyph unicode="&#x201d;" horiz-adv-x="1300" d="M358 1052l320 408h420l-322 -408h-418zM1010 1052l320 408h420l-322 -408h-418z" />
<glyph unicode="&#x201e;" horiz-adv-x="1902" d="M-714 -264l630 570h602l-632 -570h-600zM-714 -264l630 570h602l-632 -570h-600zM-714 -264l630 570h602l-632 -570h-600zM-714 -264l630 570h602l-632 -570h-600zM-714 -264l630 570h602l-632 -570h-600zM-714 -264l630 570h602l-632 -570h-600zM-714 -264l630 570h602 l-632 -570h-600zM-714 -264l630 570h602l-632 -570h-600zM-714 -264l630 570h602l-632 -570h-600zM-714 -264l630 570h602l-632 -570h-600zM-714 -264l630 570h602l-632 -570h-600zM168 -264l630 570h602l-632 -570h-600z" />
<glyph unicode="&#x2022;" />
<glyph unicode="&#x2026;" horiz-adv-x="2688" d="M-412 0l246 306h600l-242 -306h-604zM462 0l246 306h600l-242 -306h-604zM1322 0l246 306h600l-242 -306h-604z" />
<glyph unicode="&#x202f;" horiz-adv-x="315" />
<glyph unicode="&#x2039;" />
<glyph unicode="&#x203a;" />
<glyph unicode="&#x205f;" horiz-adv-x="394" />
<glyph unicode="&#x20ac;" />
<glyph unicode="&#x2122;" />
<glyph unicode="&#x25fc;" horiz-adv-x="1030" d="M0 0v1030h1030v-1030h-1030z" />
</font>
</defs>
</svg>
